promotion image of download ymail app
Promoted

怎麼將影片轉成這個格式??

要用怎樣的程式可以轉出以下的設定??

請問怎麼設定 (附步驟)

另外怎麼將MKV轉AVI??

Format : AVI

Format/Info : Audio Video Interleave

File size : 251 MiB

Duration : 23mn 47s

Overall bit rate : 1 474 Kbps

Writing application : VirtualDubMod 1.5.10.2 (build 2540/release)

Writing library : VirtualDubMod build 2540/release

Video

ID : 0

Format : MPEG-4 Visual

Format profile : Advanced Simple@L5

Format settings, BVOP : Yes

Format settings, QPel : No

Format settings, GMC : No warppoints

Format settings, Matrix : Default (H.263)

Muxing mode : Packed bitstream

Codec ID : XVID

Codec ID/Hint : XviD

Duration : 23mn 47s

Bit rate : 1 339 Kbps

Width : 624 pixels

Height : 352 pixels

Display aspect ratio : 16:9

Frame rate : 23.976 fps

Color space : YUV

Chroma subsampling : 4:2:0

Bit depth : 8 bits

Scan type : Progressive

Bits/(Pixel*Frame) : 0.254

Stream size : 228 MiB (91%)

Writing library : XviD 1.2.1 (UTC 2008-12-04)

Update:

Audio

ID : 1

Format : MPEG Audio

Format version : Version 1

Format profile : Layer 3

Mode : Joint stereo

Mode extension : MS Stereo

Update 2:

Codec ID : 55

Codec ID/Hint : MP3

Duration : 23mn 47s

Bit rate mode : Variable

Bit rate : 123 Kbps

Minimum bit rate : 32.0 Kbps

Channel(s) : 2 channels

Update 3:

Sampling rate : 44.1 KHz

Stream size : 20.9 MiB (8%)

Alignment : Aligned on interleaves

Interleave, duration : 26 ms (0.63 video frame)

Interleave, preload duration : 156 ms

Writing library : LAME3.98r

Update 4:

Encoding settings : -m j -V 6 -q 2 -lowpass 15.5 --vbr-new -b 32

1 Answer

Rating
  • 10 years ago
    Favorite Answer

    轉檔需要用轉檔器,

    至於轉檔器你可以下載免費的轉檔器,

    也可以花錢去弄好一點的轉檔器,

    當然不是所有的轉檔器都可以轉所有的檔案,

    所以你要找到能把MKV轉成AVI的轉檔器,

    至於你上面一大串的東西應該是你想轉成的影片的規格,

    規格上大部分是沒有什麼大礙,如果你堅持一定要像上面的規格,

    那你可以在轉檔器上設定成你所需要的影片規格,

    ex:螢幕尺寸可以調(像你上面所打的Width (寬): 624 pixels Height(高) : 352 pixels)

    因為你用的是什麼種的轉檔器我也不清楚,所以有些問題沒辦法很詳細的解釋,

    不過建議你用多功能和比較好的轉檔器,用起來比較方便,而且功能較多,

    像我之前的轉檔器就沒辦法自訂規格,現在換了一個比較多功能的,就方便多了,

    轉檔器下載好後,就先設定你想要的規格(或著你可以就依照轉檔器上面的規格轉檔),然後選擇你要的檔案類型(你說的AVI檔),按下轉檔,就完成了。

    Source(s): 自己
    • Commenter avatarLogin to reply the answers
Still have questions? Get your answers by asking now.